ONCE UPON A TIME | Download | Everything Sucks HDTV
 * Dettagli Torrent   globale  | Commenti (0) 


- Corpo e Anima (2017).H264.italian.Hun.Ac3-5.1.sub.ita.eng.MIRCrew -


Download via torrent:
Categoria bittorrent BDRip
Descrizione
On Body and Soul  - Corpo e Anima (2017).H264.italian.Hungarian.Ac3-5.1.sub.ita.eng.MIRCrew



NO FOUND ONLY ORIGINAL RELEASE




My release is always in double track audio italian and Original audio
for select it use VLC or dvd player home
not use wmp

ENGLISH SUBTITLE INSIDE

Corpo e Anima

On Body and Soul


(2017)







GENERE: Drammatico
ANNO: 2017
REGIA: Ildikó Enyedi
PAESE: Ungheria
DURATA: 116 Min



Géza Morcsányi, Alexandra Borbély, Zoltán Schneider, Ervin Nagy, Tamás Jordán, Zsuzsa Járó



Endre, direttore amministrativo di un mattatoio industriale, è sospettoso nei confronti di Mária, nuova responsabile del controllo qualità inviata dalle autorità. Endre pensa che Mária sia eccessivamente formale e troppo concentrata su sé stessa.



When slaughterhouse workers Endre and Mária discover they share the same dreams - where they meet in a forest as deer and fall in love - they decide to make their dreams come true but it's difficult in real life.












[spoiler]
General
Unique ID                                : 42373360601721762782632936174662958449 (0x1FE0CFF99FDE897E3A0283B604FFBD71)
Complete name                            : Corpo e Anima - On Body and Soul (2017).H264.ita.Hun.sub.ita.eng - MIRCrew\Corpo e Anima - On Body and Soul (2017).H264.ita.Hun.sub.ita.eng - MIRCrew.mkv
Format                                   : Matroska
Format version                           : Version 2
File size                                : 1.47 GiB
Duration                                 : 1h 55mn
Overall bit rate                         : 1 812 Kbps
Encoded date                             : UTC 2018-04-24T17:14:41Z
Writing application                      : HandBrake 0.10.5 2016021100
Writing library                          : Lavf55.12.0

Video
ID                                       : 1
Format                                   : AVC
Format/Info                              : Advanced Video Codec
Format profile                           : [email protected]
Format settings, CABAC                   : Yes
Format settings, ReFrames                : 4 frames
Codec ID                                 : V_MPEG4/ISO/AVC
Duration                                 : 1h 55mn
Bit rate                                 : 1 300 Kbps
Width                                    : 720 pixels
Height                                   : 304 pixels
Display aspect ratio                     : 2.35:1
Frame rate mode                          : Variable
Frame rate                               : 24.000 fps
Color space                              : YUV
Chroma subsampling                       : 4:2:0
Bit depth                                : 8 bits
Scan type                                : Progressive
Bits/(Pixel*Frame)                       : 0.247
Stream size                              : 1.02 GiB (70%)
Writing library                          : x264 core 142 r2479 dd79a61
Encoding settings                        : cabac=1 / ref=3 / deblock=1:0:0 / analyse=0x3:0x113 / me=hex / subme=7 / psy=1 / psy_rd=1.00:0.00 / mixed_ref=1 / me_range=16 / chroma_me=1 / trellis=1 / 8x8dct=1 / cqm=0 / deadzone=21,11 / fast_pskip=1 / chroma_qp_offset=-2 / threads=3 / lookahead_threads=1 / sliced_threads=0 / nr=0 / decimate=1 / interlaced=0 / bluray_compat=0 / constrained_intra=0 / bframes=3 / b_pyramid=2 / b_adapt=1 / b_bias=0 / direct=1 / weightb=1 / open_gop=0 / weightp=2 / keyint=240 / keyint_min=24 / scenecut=40 / intra_refresh=0 / rc_lookahead=40 / rc=abr / mbtree=1 / bitrate=1300 / ratetol=1.0 / qcomp=0.60 / qpmin=0 / qpmax=69 / qpstep=4 / vbv_maxrate=62500 / vbv_bufsize=78125 / nal_hrd=none / filler=0 / ip_ratio=1.40 / aq=1:1.00
Default                                  : Yes
Forced                                   : No
Color primaries                          : BT.709-5, BT.1361, IEC 61966-2-4, SMPTE RP177
Transfer characteristics                 : BT.709-5, BT.1361
Matrix coefficients                      : BT.709-5, BT.1361, IEC 61966-2-4 709, SMPTE RP177

Audio #1
ID                                       : 2
Format                                   : AC-3
Format/Info                              : Audio Coding 3
Mode extension                           : CM (complete main)
Codec ID                                 : A_AC3
Duration                                 : 1h 55mn
Bit rate mode                            : Constant
Bit rate                                 : 384 Kbps
Channel(s)                               : 6 channels
Channel positions                        : Front: L C R, Side: L R, LFE
Sampling rate                            : 48.0 KHz
Bit depth                                : 16 bits
Compression mode                         : Lossy
Delay relative to video                  : 1mn 5s
Stream size                              : 318 MiB (21%)
Title                                    : Surround
Language                                 : Italian
Default                                  : Yes
Forced                                   : No

Audio #2
ID                                       : 3
Format                                   : MPEG Audio
Format version                           : Version 1
Format profile                           : Layer 3
Mode                                     : Joint stereo
Mode extension                           : MS Stereo
Codec ID                                 : A_MPEG/L3
Codec ID/Hint                            : MP3
Duration                                 : 1h 55mn
Bit rate mode                            : Constant
Bit rate                                 : 128 Kbps
Channel(s)                               : 2 channels
Sampling rate                            : 48.0 KHz
Compression mode                         : Lossy
Delay relative to video                  : 1mn 5s
Stream size                              : 106 MiB (7%)
Title                                    : Stereo
Writing library                          : LAME3.98
Language                                 : Hungarian
Default                                  : No
Forced                                   : No

Menu
00:00:00.000                             : :00:00:00.000
00:07:05.458                             : :00:07:05.342
00:14:28.333                             : :00:14:28.201
00:20:13.958                             : :00:20:13.838
00:29:27.333                             : :00:29:27.099
00:39:02.791                             : :00:39:02.590
00:50:56.958                             : :00:50:56.804
00:59:53.000                             : :00:59:52.756
01:08:53.291                             : :01:08:53.129
01:16:20.125                             : :01:16:19.950
01:25:27.833                             : :01:25:27.706
01:35:23.583                             : :01:35:23.259
01:45:16.458                             : :01:45:16:300
01:50:01.375                             : :01:50:01:150



[/spoiler]



Info: Per scaricare devi usare un client come uTorrent o Transmission
AnnounceURL
udp://tracker.coppersurfer.tk:6969/announce
Hash a188a51fb5bd54e1afd22bdc1a51bd41d63022a0
Peers seeds: 144 , leech: 41
Size 1.47 GB
Completato 1330x
Aggiunto 26.04.18 - 15:04:26
Uploader   robbyrs
Votazione (Voti: 0)


Condividi questo bittorrent:


html/blog:


bbcode/forum:




Aggiungi Commento


counter